Cheers S01-S11 WEBRip x264-ION10 - Torrenting.com

Cheers S01-S11 WEBRip x264-ION10

[FreeLeech]

Category: TV/Packs| Size: 62.43 GB| Added: 2018-05-01 18:23:43

Download
SubscribeBookmark Report

2 0

Cheers (1982)

Comedy, Drama
Ratings: 7.8 / 10
Votes: 43,701 People
The regulars of the Boston bar Cheers share their experiences and lives with each other while drinking or working at the bar where everybody knows your...
Actors: Ted Danson, Rhea Perlman, John Ratzenberger, George Wendt, Kelsey Grammer, Woody Harrelson, Kirstie Alley, Shelley Long
sorry for uploading speeds seeding other torrents as well   tyvm for patient u will get your torrent ty....elmoelmo

Video
ID : 1
Format : AVC
Format/Info : Advanced Video Codec
Format profile : High@L3.1
Format settings : CABAC / 5 Ref Frames
Format settings, CABAC : Yes
Format settings, ReFrames : 5 frames
Codec ID : avc1
Codec ID/Info : Advanced Video Coding
Duration : 23 min 29 s
Bit rate : 1 100 kb/s
Width : 720 pixels
Height : 544 pixels
Display aspect ratio : 4:3
Frame rate mode : Constant
Frame rate : 23.976 (24000/1001) FPS
Color space : YUV
Chroma subsampling : 4:2:0
Bit depth : 8 bits
Scan type : Progressive
Bits/(Pixel*Frame) : 0.117
Stream size : 184 MiB (81%)
Writing library : x264 core 148 r2795M aaa9aa8
Encoding settings : cabac=1 / ref=5 / deblock=1:-1:-1 /
Language : English

Audio
ID : 2
Format : AAC
Format/Info : Advanced Audio Codec
Format profile : LC
Codec ID : mp4a-40-2
Duration : 23 min 29 s
Bit rate mode : Constant
Bit rate : 256 kb/s
Channel(s) : 2 channels
Channel positions : Front: L R
Sampling rate : 48.0 kHz
Frame rate : 46.875 FPS (1024 SPF)
Compression mode : Lossy
Stream size : 43.0 MiB (19%)
Language : English
Default : Yes
Alternate group : 1


http://imdb.com/title/tt0083399/