Criminal Minds S07-13 WEBRip 1080p E-AC-3 H265-d3g - Torrenting.com

Criminal Minds S07-13 WEBRip 1080p E-AC-3 H265-d3g

[FreeLeech]

Category: TV/Packs| Size: 192.95 GB| Added: 2018-05-01 08:29:37

Download
SubscribeBookmark Report

2 0

Criminal Minds (2005)

Crime, Drama, Mystery, Thriller
Ratings: 8.1 / 10
Votes: 140,722 People
Criminal Minds is a TV series starring Matthew Gray Gubler, Kirsten Vangsness, and A.J. Cook. The cases of the F.B.I. Behavioral Analysis Unit (B.A.U.), an elite group of profilers who analyze the nations most dangerous serial...
Actors: Matthew Gray Gubler, Kirsten Vangsness, A.J. Cook, Joe Mantegna, Thomas Gibson, Shemar Moore, Paget Brewster




Criminal Minds S07-13 WEBRip 1080p E-AC-3 H265-d3g



An elite squad of FBI profilers analyzes the country's most-twisted criminal minds, anticipating the perpetrators' next moves before they can strike again. Each member of the "mind hunter" team brings his or her expertise to pinpoint predators' motivations and identify emotional triggers to stop them. The core group includes an official profiler who is highly skilled at getting into the minds of criminals, a quirky genius, the former media liaison who manages to adeptly balance family life and the job, and a computer wizard.
First episode date: September 22, 2005

IMDb: https://www.imdb.com/title/tt0452046/




======================

======================

======================

======================



Source: Amazon WEB-DL

Per Episode :

Format : Matroska
Format version : Version 2
File size : 1.20 GiB
Duration : 42 min 29 s
Overall bit rate : 4 057 kb/s
Movie name : Criminal.Minds.S07E01.WEBRip.1080p.DD5.1.H265-d3g
Encoded date : UTC 2018-04-29 01:29:04
Writing application : DVDFab 10.0.9.0
Writing library : libebml v1.3.4 + libmatroska v1.4.5

Video
ID : 1
Format : HEVC
Format/Info : High Efficiency Video Coding
Format profile : Main@L4@Main
Codec ID : V_MPEGH/ISO/HEVC
Duration : 42 min 28 s
Bit rate : 3 403 kb/s
Width : 1 920 pixels
Height : 1 080 pixels
Display aspect ratio : 16:9
Frame rate mode : Constant
Frame rate : 23.976 (24000/1001) FPS
Color space : YUV
Chroma subsampling : 4:2:0
Bit depth : 8 bits
Bits/(Pixel*Frame) : 0.068
Stream size : 1.01 GiB (84%)
Default : Yes
Forced : No
Color range : Limited
Color primaries : BT.709
Transfer characteristics : BT.709
Matrix coefficients : BT.709

Audio
ID : 2
Format : E-AC-3
Format/Info : Enhanced Audio Coding 3
Codec ID : A_EAC3
Duration : 42 min 29 s
Bit rate mode : Constant
Bit rate : 640 kb/s
Channel(s) : 6 channels
Channel positions : Front: L C R, Side: L R, LFE
Sampling rate : 48.0 kHz
Frame rate : 187.500 FPS (256 SPF)
Compression mode : Lossy
Stream size : 194 MiB (16%)
Language : English
Service kind : Complete Main
Default : Yes
Forced : No

Text
ID : 3
Format : VobSub
Codec ID : S_VOBSUB
Codec ID/Info : Picture based subtitle format used on DVDs
Duration : 41 min 45 s
Bit rate : 13.4 kb/s
Count of elements : 686
Stream size : 4.01 MiB (0%)
Language : English
Default : No
Forced : No








Enjoy!

Huge thanks and greetz fly out to "fate385" for all the tech support he provides.






Related Torrents
Type Name Size
TV/SD-x264 Criminal Minds S14E15 HDTV x264-KILLERS New!
7 months and 2 weeks ago
0290.97 MB5 0
TV/SD-x264 Criminal Minds S14E07 HDTV x264-KILLERS New!
10 months and 1 week ago
0288.88 MB4 0
TV/SD-x264 Quantico S03E11 XviD-AFG New!
1 year and 2 months ago
0351.91 MB4 1
TV/SD-x264 Criminal Minds S14E12 HDTV x264-KILLERS New!
8 months and 2 weeks ago
0256.59 MB4 0
TV/SD-x264 Criminal Minds S14E02 WEB x264-TBS New!
11 months and 2 weeks ago
0686.37 MB4 0

<< 1 - 5 >>

Softstring

(Power User)

Many Thanks......:t70:

cdoddy

(Power User)

THANK YOU

MsMew

(Power User)

TY

InTooDeep

(Power User)

:t216:

mister420

(Power User)

thx

<< 1 - 5 >>