The Things Weve Seen 2017 1080p WEB-DL x264 AAC-eSc - Torrenting.com

The Things Weve Seen 2017 1080p WEB-DL x264 AAC-eSc

Category: Movies| Size: 1.30 GB| Added: 2018-05-01 06:59:54

Download
SubscribeBookmark Report

0 0

The Things We've Seen (2017)

Crime, Drama, Thriller
Ratings: 4.1 / 10
Votes: 109 People
Accusations of guilt turns a father into a fugitive, leaving his son to find and bring him home after struggling to put the pieces...
Actors: Randy Ryan, Jarrett Maier, Shani Salyers Stiles, Noah McCarty-Slaughter, John D. Carver, Jordon Hodges, Roger Welp, Erin Raftery, Emma Thompson, Bruce Spielbauer, Danny Glenn, Griffin Morgan, Tyler Schorsch, Keith Kelly, Linda Terborg




The.Things.Weve.Seen.2017.1080p.WEB-DL.x264.AAC-eSc

Plot

Accusations of guilt turns a father into a fugitive, leaving his son to find and bring him home after struggling to put the pieces together.

https://www.imdb.com/title/tt4907976/

Cast

Randy Ryan ... Rayford Boem
Jarrett Maier ... Reagan Boem
Shani Salyers Stiles ... Ivory Joy Boem
Noah McCarty-Slaughter ... Neely Boem













Infomation


General
Format : MPEG-4
Format profile : Base Media / Version 2
Codec ID : mp42 (isom/iso2/avc1/mp41)
File size : 1.30 GiB
Duration : 1 h 20 min
Overall bit rate mode : Variable
Overall bit rate : 2 310 kb/s
Encoded date : UTC 2018-04-29 19:35:41
Tagged date : UTC 2018-04-29 20:16:31

Video
ID : 1
Format : AVC
Format/Info : Advanced Video Codec
Format profile : High@L4.1
Format settings : CABAC / 4 Ref Frames
Format settings, CABAC : Yes
Format settings, RefFrames : 4 frames
Codec ID : avc1
Codec ID/Info : Advanced Video Coding
Duration : 1 h 20 min
Bit rate : 2 200 kb/s
Width : 1 912 pixels
Height : 812 pixels
Display aspect ratio : 2.35:1
Frame rate mode : Variable
Frame rate : 23.976 FPS
Minimum frame rate : 11.989 FPS
Maximum frame rate : 23.981 FPS
Color space : YUV
Chroma subsampling : 4:2:0
Bit depth : 8 bits
Scan type : Progressive
Bits/(Pixel*Frame) : 0.059
Stream size : 1.24 GiB (95%)
Writing library : x264 core 142 r2479 dd79a61
Encoding settings : cabac=1 / ref=3 / deblock=1:-1:-1 / analyse=0x3:0x113 / me=hex / subme=7 / psy=1 / psy_rd=1.00:0.15 / mixed_ref=1 / me_range=16 / chroma_me=1 / trellis=1 / 8x8dct=1 / cqm=0 / deadzone=21,11 / fast_pskip=1 / chroma_qp_offset=-3 / threads=12 / lookahead_threads=2 / sliced_threads=0 / nr=0 / decimate=1 / interlaced=0 / bluray_compat=0 / constrained_intra=0 / bframes=3 / b_pyramid=2 / b_adapt=1 / b_bias=0 / direct=1 / weightb=1 / open_gop=0 / weightp=2 / keyint=240 / keyint_min=24 / scenecut=40 / intra_refresh=0 / rc_lookahead=40 / rc=2pass / mbtree=1 / bitrate=2200 / ratetol=1.0 / qcomp=0.60 / qpmin=0 / qpmax=69 / qpstep=4 / cplxblur=20.0 / qblur=0.5 / vbv_maxrate=62500 / vbv_bufsize=78125 / nal_hrd=none / filler=0 / ip_ratio=1.40 / aq=1:1.00
Language : English
Encoded date : UTC 2018-04-29 19:35:41
Tagged date : UTC 2018-04-29 19:35:41
Color range : Limited
Color primaries : BT.709
Transfer characteristics : BT.709
Matrix coefficients : BT.709
Menus : 4

Audio
ID : 2
Format : AAC
Format/Info : Advanced Audio Codec
Format profile : LC
Codec ID : mp4a-40-2
Duration : 1 h 20 min
Bit rate mode : Variable
Bit rate : 104 kb/s
Channel(s) : 2 channels
Channel positions : Front: L R
Sampling rate : 48.0 kHz
Frame rate : 46.875 FPS (1024 SPF)
Compression mode : Lossy
Stream size : 60.3 MiB (5%)
Title : Stereo / Stereo
Language : English
Default : Yes
Alternate group : 1
Encoded date : UTC 2018-04-29 19:35:41
Tagged date : UTC 2018-04-29 19:35:41

Menu
ID : 4
Codec ID : text
Duration : 1 h 20 min
Encoded date : UTC 2018-04-29 20:16:31
Tagged date : UTC 2018-04-29 20:16:31
Bit rate mode : CBR
Menu For : 1
00:00:00.000 : 1
00:11:47.165 : 2
00:23:57.144 : 3
00:33:10.155 : 4
00:43:02.205 : 5
00:51:17.157 : 6
01:04:02.130 : 7
01:15:16.178 : 8



[center][/center]
Related Torrents
Type Name Size
Movies The Things Weve Seen 2017 HDRip XviD AC3-EVO New!
1 year and 4 months ago
01.31 GB0 0