Black Hollow Cage 2017 720p WEB-DL x264 AAC-eSc - Torrenting.com

Black Hollow Cage 2017 720p WEB-DL x264 AAC-eSc

Category: Movies| Size: 931.98 MB| Added: 2018-05-01 06:56:26

Download
SubscribeBookmark Report

1 0

Black Hollow Cage (2017)

Drama, Horror, Sci-Fi, Thriller
Ratings: 5.5 / 10
Votes: 1,219 People
A girl who lives secluded in a house in the woods with the only company of her father and a wolfhound finds among the trees a mysterious...
Actors: Julian Nicholson, Lowena McDonell, Lucy Tillett, Haydée Lysander, Daniel M. Jacobs, Marc Puiggener, Will Hudson




Black.Hollow.Cage.2017.720p.WEB-DL.x264.AAC-eSc

Plot

A girl who lives secluded in a house in the woods with the only company of her father and a wolfhound finds among the trees a mysterious cubic device with the ability to change the past.

https://www.imdb.com/title/tt5687424/

Cast

Julian Nicholson ... Adam
Lowena McDonell ... Alice
Haydee Lysander ... Erika
Daniel M. Jacobs ... Doctor













Infomation


General
Format : MPEG-4
Format profile : Base Media / Version 2
Codec ID : mp42 (isom/iso2/avc1/mp41)
File size : 932 MiB
Duration : 1 h 45 min
Overall bit rate mode : Variable
Overall bit rate : 1 233 kb/s
Encoded date : UTC 2018-04-29 21:30:01
Tagged date : UTC 2018-04-29 22:09:21

Video
ID : 1
Format : AVC
Format/Info : Advanced Video Codec
Format profile : High@L4.1
Format settings : CABAC / 4 Ref Frames
Format settings, CABAC : Yes
Format settings, RefFrames : 4 frames
Codec ID : avc1
Codec ID/Info : Advanced Video Coding
Duration : 1 h 45 min
Bit rate : 1 100 kb/s
Width : 1 280 pixels
Height : 534 pixels
Display aspect ratio : 2.40:1
Original display aspect ratio : 2.40:1
Frame rate mode : Variable
Frame rate : 23.976 FPS
Minimum frame rate : 12.048 FPS
Maximum frame rate : 24.390 FPS
Color space : YUV
Chroma subsampling : 4:2:0
Bit depth : 8 bits
Scan type : Progressive
Bits/(Pixel*Frame) : 0.067
Stream size : 831 MiB (89%)
Writing library : x264 core 142 r2479 dd79a61
Encoding settings : cabac=1 / ref=3 / deblock=1:-1:-1 / analyse=0x3:0x113 / me=hex / subme=7 / psy=1 / psy_rd=1.00:0.15 / mixed_ref=1 / me_range=16 / chroma_me=1 / trellis=1 / 8x8dct=1 / cqm=0 / deadzone=21,11 / fast_pskip=1 / chroma_qp_offset=-3 / threads=12 / lookahead_threads=2 / sliced_threads=0 / nr=0 / decimate=1 / interlaced=0 / bluray_compat=0 / constrained_intra=0 / bframes=3 / b_pyramid=2 / b_adapt=1 / b_bias=0 / direct=1 / weightb=1 / open_gop=0 / weightp=2 / keyint=240 / keyint_min=24 / scenecut=40 / intra_refresh=0 / rc_lookahead=40 / rc=2pass / mbtree=1 / bitrate=1100 / ratetol=1.0 / qcomp=0.60 / qpmin=0 / qpmax=69 / qpstep=4 / cplxblur=20.0 / qblur=0.5 / vbv_maxrate=62500 / vbv_bufsize=78125 / nal_hrd=none / filler=0 / ip_ratio=1.40 / aq=1:1.00
Language : English
Encoded date : UTC 2018-04-29 21:30:01
Tagged date : UTC 2018-04-29 21:30:01
Color range : Limited
Color primaries : BT.709
Transfer characteristics : BT.709
Matrix coefficients : BT.709
Menus : 4

Audio
ID : 2
Format : AAC
Format/Info : Advanced Audio Codec
Format profile : LC
Codec ID : mp4a-40-2
Duration : 1 h 45 min
Bit rate mode : Variable
Bit rate : 126 kb/s
Channel(s) : 2 channels
Channel positions : Front: L R
Sampling rate : 48.0 kHz
Frame rate : 46.875 FPS (1024 SPF)
Compression mode : Lossy
Stream size : 95.4 MiB (10%)
Title : Stereo / Stereo
Language : English
Default : Yes
Alternate group : 1
Encoded date : UTC 2018-04-29 21:30:01
Tagged date : UTC 2018-04-29 21:30:01

Menu
ID : 4
Codec ID : text
Duration : 1 h 45 min
Encoded date : UTC 2018-04-29 22:09:21
Tagged date : UTC 2018-04-29 22:09:21
Menu For : 1
00:00:00.000 : Chapter 1
00:09:03.293 : Chapter 2
00:17:39.309 : Chapter 3
00:26:07.359 : Chapter 4
00:36:15.300 : Chapter 5
00:46:17.319 : Chapter 6
00:56:59.336 : Chapter 7
01:06:25.277 : Chapter 8
01:16:44.313 : Chapter 9
01:26:52.337 : Chapter 10
01:38:35.374 : Chapter 11
Bit rate mode : VBR



[center][/center]
Related Torrents
Type Name Size
Movies Black Hollow Cage 2017 HDRip XviD AC3-EVO New!
1 year and 6 months ago
01.42 GB2 0

<< 1 - 2 >>

rollman

(Power User)

Thanks

bob1234999

(Power User)

thnx

<< 1 - 2 >>