Gossip Girl S01-S06 WEBRip x264-ION10 - Torrenting.com

Gossip Girl S01-S06 WEBRip x264-ION10

[FreeLeech]

Category: TV/Packs| Size: 48.30 GB| Added: 2018-05-01 04:05:14

Download
SubscribeBookmark Report

0 0

Gossip Girl (2007)

Drama, Romance
Ratings: 7.4 / 10
Votes: 141,604 People
Privileged teens living on the Upper East Side of New York can hide no secret from the ruthless blogger who is always watching.
Actors: Blake Lively, Leighton Meester, Penn Badgley, Chace Crawford, Ed Westwick, Kelly Rutherford, Matthew Settle, Taylor Momsen, Jessica Szohr, Zuzanna Szadkowski, Connor Paolo
NOTES ((((im gonna just upload the tv packs from this point on u cant go wrong with freeleech wow ...I will also upload the tv packs hevc as well.......spread the word about this site freeleech for more seeders the better I can upload more for yas.......u may pm and ask me any questions ya like I will get back to ya all nps there...Please bare with the upload speed at times im uploading more than 1 at a time tyvm for your patients..........))))elmoelmo

Another quality upload from elmoelmo


Video
ID : 1
Format : AVC
Format/Info : Advanced Video Codec
Format profile : High@L3.1
Format settings : CABAC / 5 Ref Frames
Format settings, CABAC : Yes
Format settings, ReFrames : 5 frames
Codec ID : avc1
Codec ID/Info : Advanced Video Coding
Duration : 42 min 45 s
Bit rate : 1 100 kb/s
Width : 720 pixels
Height : 400 pixels
Display aspect ratio : 16:9
Frame rate mode : Constant
Frame rate : 23.976 (24000/1001) FPS
Color space : YUV
Chroma subsampling : 4:2:0
Bit depth : 8 bits
Scan type : Progressive
Bits/(Pixel*Frame) : 0.159
Stream size : 336 MiB (81%)
Writing library : x264 core 148 r2795M aaa9aa8
Encoding settings : cabac=1 / ref=5 / deblock=1:-1:-1 /

Audio
ID : 2
Format : AAC
Format/Info : Advanced Audio Codec
Format profile : LC
Codec ID : mp4a-40-2
Duration : 42 min 45 s
Bit rate mode : Constant
Bit rate : 256 kb/s
Channel(s) : 2 channels
Channel positions : Front: L R
Sampling rate : 48.0 kHz
Frame rate : 46.875 FPS (1024 SPF)
Compression mode : Lossy
Stream size : 78.3 MiB (19%)
Language : English
Default : Yes
Alternate group : 1

http://imdb.com/title/tt0397442/

<< 1 - 1 >>

luizfv

(Power User)

Tks for share

<< 1 - 1 >>