Mission Impossible S01-S07 WEBRip x264-ION10 - Torrenting.com

Mission Impossible S01-S07 WEBRip x264-ION10

[FreeLeech]

Category: TV/Packs| Size: 81.62 GB| Added: 2018-05-01 03:27:14

Download
SubscribeBookmark Report

2 2

Mission: Impossible (1966)

Action, Adventure, Crime, Drama, Thriller
Ratings: 7.9 / 10
Votes: 7,201 People
Mission: Impossible is a TV series starring Peter Graves, Barbara Bain, and Greg Morris. An elite covert operations unit carries out highly sensitive missions subject to official denial in the event of failure, death or capture.
Actors: Greg Morris, Peter Lupus, Peter Graves, Barbara Bain, Martin Landau
NOTES ((((im gonna just upload the tv packs from this point on u cant go wrong with freeleech wow ...I will also upload the tv packs hevc as well.......spread the word about this site freeleech for more seeders the better I can upload more for yas.......u may pm and ask me any questions ya like I will get back to ya all nps there...Please bare with the upload speed at times im uploading more than 1 at a time tyvm for your patients..........))))elmoelmo

Another quality upload from elmoelmo


Video
ID : 1
Format : AVC
Format/Info : Advanced Video Codec
Format profile : High@L3.1
Format settings : CABAC / 5 Ref Frames
Format settings, CABAC : Yes
Format settings, ReFrames : 5 frames
Codec ID : avc1
Codec ID/Info : Advanced Video Coding
Duration : 50 min 15 s
Bit rate : 1 100 kb/s
Width : 720 pixels
Height : 544 pixels
Display aspect ratio : 4:3
Frame rate mode : Constant
Frame rate : 23.976 (24000/1001) FPS
Color space : YUV
Chroma subsampling : 4:2:0
Bit depth : 8 bits
Scan type : Progressive
Bits/(Pixel*Frame) : 0.117
Stream size : 396 MiB (81%)
Writing library : x264 core 148 r2795M aaa9aa8
Encoding settings : cabac=1 / ref=5 / deblock=1:-1:-1 /
Language : English

Audio
ID : 2
Format : AAC
Format/Info : Advanced Audio Codec
Format profile : LC
Codec ID : mp4a-40-2
Duration : 50 min 15 s
Duration_LastFrame : -11 ms
Bit rate mode : Constant
Bit rate : 256 kb/s
Channel(s) : 2 channels
Channel positions : Front: L R
Sampling rate : 48.0 kHz
Frame rate : 46.875 FPS (1024 SPF)
Compression mode : Lossy
Stream size : 92.0 MiB (19%)
Language : English
Default : Yes
Alternate group : 1

http://imdb.com/title/tt0060009/

<< 1 - 7 >>

paul1259

(Power User)

:t235:  Thank You   :t231:

:t235:  Thank You   :t231:
u are welcome........

blackbird2193

(Power User)

:t369: cool  Thanks

UhSir

(Power User)

Thank you!
:t346:

rollman

(Power User)

Awesome. Thank you

:t319:

PeterNL

(User)

Yeah  THX

scotjock1947

(Power User)

:t342:  :t414:  :t373:

<< 1 - 7 >>