12 Strong 2018 BluRay 10Bit 1080p DD5 1 H265-d3g - Torrenting.com

12 Strong 2018 BluRay 10Bit 1080p DD5 1 H265-d3g

Category: Movies/x265| Size: 2.66 GB| Added: 2018-04-22 23:06:29

Download
SubscribeBookmark Report

2 0

12 Strong (2018)

Action, Drama, History, War
Ratings: 6.6 / 10
Votes: 52,827 People
12 Strong is a movie starring Chris Hemsworth, Michael Shannon, and Michael Peña. 12 Strong tells the story of the first Special Forces team deployed to Afghanistan after 9/11; under the leadership of a new captain, the team must...
Actors: Chris Hemsworth, Michael Shannon, Michael Peña, Navid Negahban, Trevante Rhodes, Geoff Stults, Thad Luckinbill, Austin Hébert, Austin Stowell, Ben O'Toole, Kenneth Miller, Kenny Sheard, Jack Kesy, Rob Riggle, William Fichtner




12 Strong 2018 BluRay 10Bit 1080p DD5.1 H265-d3g



In the wake of Sept. 11, Capt. Mitch Nelson leads a U.S. Special Forces team into Afghanistan for an extremely dangerous mission. Once there, the soldiers develop an uneasy partnership with the Northern Alliance to take down the Taliban and its al-Qaida allies. Outgunned and outnumbered, Nelson and his forces face overwhelming odds in a fight against a ruthless enemy that takes no prisoners.
Release date: January 19, 2018 (USA)

IMDb: https://www.imdb.com/title/tt1413492/




======================

======================

======================



Source: BluRay BD-R

Movie name : 12 Strong 2018 BluRay 10Bit 1080p DD5.1 H265-d3g
Encoded date : UTC 2018-04-22 20:18:00
Writing application : DVDFab 10.0.9.0
Writing library : libebml v1.3.4 + libmatroska v1.4.5

Video
ID : 1
Format : HEVC
Format/Info : High Efficiency Video Coding
Format profile : Main 10@L4@Main
Codec ID : V_MPEGH/ISO/HEVC
Duration : 2 h 9 min
Bit rate : 2 475 kb/s
Width : 1 920 pixels
Height : 800 pixels
Display aspect ratio : 2.40:1
Frame rate mode : Constant
Frame rate : 23.976 (24000/1001) FPS
Color space : YUV
Chroma subsampling : 4:2:0
Bit depth : 10 bits
Bits/(Pixel*Frame) : 0.067
Stream size : 2.25 GiB (84%)
Default : Yes
Forced : No
Color range : Limited
Color primaries : BT.709
Transfer characteristics : BT.709
Matrix coefficients : BT.709

Audio
ID : 2
Format : AC-3
Format/Info : Audio Coding 3
Codec ID : A_AC3
Duration : 2 h 9 min
Bit rate mode : Constant
Bit rate : 448 kb/s
Channel(s) : 6 channels
Channel positions : Front: L C R, Side: L R, LFE
Sampling rate : 48.0 kHz
Frame rate : 31.250 FPS (1536 SPF)
Bit depth : 16 bits
Compression mode : Lossy
Stream size : 416 MiB (15%)
Language : English
Service kind : Complete Main
Default : Yes
Forced : No

Text
ID : 3
Format : VobSub
Codec ID : S_VOBSUB
Codec ID/Info : Picture based subtitle format used on DVDs
Duration : 2 h 8 min
Bit rate : 9 101 b/s
Count of elements : 1718
Stream size : 8.38 MiB (0%)
Language : English
Default : No
Forced : No








Enjoy!








Related Torrents
Type Name Size
Movies 12 Strong 2018 HDRip XviD AC3-EVO New!
1 year and 5 months ago
01.52 GB22 0
Movies 12 Strong 2018 1080p WEB-DL H264 AC3-EVO New!
1 year and 5 months ago
04.46 GB8 0
Movies 12 Strong 2018 BRRip XviD AC3-EVO New!
1 year and 5 months ago
01.40 GB2 0
Movies/x265 12 Strong 2018 UHDBDRip MKV Passthrough Multi Multi H265-d3g [Freeleech]New!
1 year and 2 months ago
050.63 GB1 1
Movies 12 Strong 2018 WEBRiP AC3 x264-LEGi0N New!
1 year and 5 months ago
01.57 GB1 0