Marvels Guardians Of The Galaxy S03E08 720p WEB-DL x264-eSc - Torrenting.com

Marvels Guardians Of The Galaxy S03E08 720p WEB-DL x264-eSc

Category: TV/x264 HD| Size: 292.41 MB| Added: 2018-04-18 06:24:33

Download
SubscribeBookmark Report

1 0

Marvel's Guardians of the Galaxy Vol. 2 (2017)

Family, Comedy
Ratings: / 10
Votes: People
Actors: Dave Bautista, James Gunn, Janelle Marie, Michael Rooker, Zoe Saldana




Marvels.Guardians.Of.The.Galaxy.S03E08.720p.WEB-DL.x264-eSc

Plot

Marvel's Guardians of the Galaxy features themes of redemption and the importance of friendships and family told through a series of riveting sequential story arcs. The series follows the newly-formed team who finds a strange artifact keyed only to the DNA of Peter Quill. Upon opening it, Quill unleashes a treasure map leading to a powerful weapon known as the Cosmic Seed which is capable of giving birth to the next universe. It's up to the Guardians to find, protect and ultimately destroy the Cosmic Seed in order to keep it out of the hands of those who would abuse its power, from galactic big boss Thanos, to the conniving brothers the Collector and the Grandmaster, to a resurrected Ronan, to the ultimate trickster, Loki, in order to save the universe.

http://www.tvmaze.com/shows/2476/marvels-guardians-of-the-galaxy

Cast

Will Friedle ... Peter Quill/Star-Lord
Trevor Devall ... Rocket Raccoon
Vanessa Marshall ... Gamora
Kevin Michael Richardson ... Groot
David Sobolov ... Dax The Destroyer





Infomation


General
Format : Matroska
Format version : Version 4 / Version 2
File size : 292 MiB
Duration : 22 min 3 s
Overall bit rate : 1 853 kb/s
Encoded date : UTC 2018-04-17 04:05:02
Writing application : mkvmerge v22.0.0 ('At The End Of The World') 64-bit
Writing library : libebml v1.3.5 + libmatroska v1.4.8

Video
ID : 1
Format : AVC
Format/Info : Advanced Video Codec
Format profile : High@L3.1
Format settings : CABAC / 4 Ref Frames
Format settings, CABAC : Yes
Format settings, RefFrames : 4 frames
Codec ID : V_MPEG4/ISO/AVC
Duration : 22 min 3 s
Bit rate : 1 467 kb/s
Width : 1 280 pixels
Height : 720 pixels
Display aspect ratio : 16:9
Frame rate mode : Constant
Frame rate : 23.976 (23976/1000) FPS
Color space : YUV
Chroma subsampling : 4:2:0
Bit depth : 8 bits
Scan type : Progressive
Bits/(Pixel*Frame) : 0.066
Stream size : 232 MiB (79%)
Writing library : x264 core 142 r2479 dd79a61
Encoding settings : cabac=1 / ref=3 / deblock=1:0:0 / analyse=0x3:0x113 / me=hex / subme=7 / psy=1 / psy_rd=1.00:0.00 / mixed_ref=1 / me_range=16 / chroma_me=1 / trellis=1 / 8x8dct=1 / cqm=0 / deadzone=21,11 / fast_pskip=1 / chroma_qp_offset=-2 / threads=12 / lookahead_threads=2 / sliced_threads=0 / nr=0 / decimate=1 / interlaced=0 / bluray_compat=0 / constrained_intra=0 / bframes=3 / b_pyramid=2 / b_adapt=1 / b_bias=0 / direct=1 / weightb=1 / open_gop=0 / weightp=2 / keyint=240 / keyint_min=24 / scenecut=40 / intra_refresh=0 / rc_lookahead=40 / rc=crf / mbtree=1 / crf=20.0 / qcomp=0.60 / qpmin=0 / qpmax=69 / qpstep=4 / vbv_maxrate=17500 / vbv_bufsize=17500 / crf_max=0.0 / nal_hrd=none / filler=0 / ip_ratio=1.40 / aq=1:1.00
Default : Yes
Forced : No
Color range : Limited
Color primaries : BT.709
Transfer characteristics : BT.709
Matrix coefficients : BT.709

Audio
ID : 2
Format : AC-3
Format/Info : Audio Coding 3
Codec ID : A_AC3
Duration : 22 min 3 s
Bit rate mode : Constant
Bit rate : 384 kb/s
Channel(s) : 6 channels
Channel positions : Front: L C R, Side: L R, LFE
Sampling rate : 48.0 kHz
Frame rate : 31.250 FPS (1536 SPF)
Bit depth : 16 bits
Compression mode : Lossy
Stream size : 60.6 MiB (21%)
Title : Surround
Language : English
Service kind : Complete Main
Default : Yes
Forced : No



[center][/center]
Related Torrents
Type Name Size
TV/SD-x264 Marvels Guardians Of The Galaxy S03E08 WEB-DL x264-eSc New!
1 year and 7 months ago
0125.37 MB4 0

<< 1 - 2 >>

CudBeShudBe

(Power User)

Cheers Much appreciated

electron58

(Power User)

Thank you!

<< 1 - 2 >>