Adam Ruins Everything S02E21 HDTV x264-eSc - Torrenting.com

Adam Ruins Everything S02E21 HDTV x264-eSc

Category: TV/SD-x264| Size: 137.35 MB| Added: 2018-04-18 06:02:47

Download
SubscribeBookmark Report

1 0

Adam Ruins Everything (2015)

Animation, Comedy, History, News, Talk-Show
Ratings: 8.1 / 10
Votes: 5,636 People
Iconoclastic Adam Conover from CollegeHumor turns life as we know it on its ear by showing us how unnecessary, and sometimes horrible,...
Actors: Adam Conover, Adam Lustick




Adam.Ruins.Everything.S02E21.HDTV.x264-eSc

Plot

"In Adam Ruins Everything", host Adam Conover employs a combination of comedy, history and science to dispel widespread misconceptions about everything we take for granted. A perfect blend of entertainment and enlightenment, Adam Ruins Everything is inviting, fast-paced and, above all, smart.

http://www.tvmaze.com/shows/3111/adam-ruins-everything

Cast

Adam Conover ... Himself





Infomation


General
Format : Matroska
Format version : Version 4 / Version 2
File size : 137 MiB
Duration : 24 min 30 s
Overall bit rate : 784 kb/s
Encoded date : UTC 2018-04-18 03:35:35
Writing application : mkvmerge v22.0.0 ('At The End Of The World') 64-bit
Writing library : libebml v1.3.5 + libmatroska v1.4.8

Video
ID : 1
Format : AVC
Format/Info : Advanced Video Codec
Format profile : High@L3.1
Format settings : CABAC / 4 Ref Frames
Format settings, CABAC : Yes
Format settings, RefFrames : 4 frames
Codec ID : V_MPEG4/ISO/AVC
Duration : 24 min 30 s
Bit rate : 670 kb/s
Width : 720 pixels
Height : 404 pixels
Display aspect ratio : 16:9
Original display aspect ratio : 16:9
Frame rate mode : Constant
Frame rate : 23.976 (24000/1001) FPS
Color space : YUV
Chroma subsampling : 4:2:0
Bit depth : 8 bits
Scan type : Progressive
Bits/(Pixel*Frame) : 0.096
Stream size : 117 MiB (85%)
Writing library : x264 core 142 r2479 dd79a61
Encoding settings : cabac=1 / ref=3 / deblock=1:0:0 / analyse=0x3:0x113 / me=hex / subme=7 / psy=1 / psy_rd=1.00:0.00 / mixed_ref=1 / me_range=16 / chroma_me=1 / trellis=1 / 8x8dct=1 / cqm=0 / deadzone=21,11 / fast_pskip=1 / chroma_qp_offset=-2 / threads=12 / lookahead_threads=2 / sliced_threads=0 / nr=0 / decimate=1 / interlaced=0 / bluray_compat=0 / constrained_intra=0 / bframes=3 / b_pyramid=2 / b_adapt=1 / b_bias=0 / direct=1 / weightb=1 / open_gop=0 / weightp=2 / keyint=240 / keyint_min=24 / scenecut=40 / intra_refresh=0 / rc_lookahead=40 / rc=crf / mbtree=1 / crf=18.0 / qcomp=0.60 / qpmin=0 / qpmax=69 / qpstep=4 / vbv_maxrate=17500 / vbv_bufsize=17500 / crf_max=0.0 / nal_hrd=none / filler=0 / ip_ratio=1.40 / aq=1:1.00
Default : Yes
Forced : No
Color range : Limited
Color primaries : BT.709
Transfer characteristics : BT.709
Matrix coefficients : BT.709

Audio
ID : 2
Format : AAC
Format/Info : Advanced Audio Codec
Format profile : LC
Codec ID : A_AAC-2
Duration : 24 min 30 s
Bit rate : 112 kb/s
Channel(s) : 2 channels
Channel positions : Front: L R
Sampling rate : 48.0 kHz
Frame rate : 46.875 FPS (1024 SPF)
Compression mode : Lossy
Delay relative to video : -83 ms
Stream size : 19.6 MiB (14%)
Language : English
Default : Yes
Forced : No



[center][/center]
Related Torrents
Type Name Size
TV/x264 HD Adam Ruins Everything S02E21 720p HDTV x264-eSc New!
1 year and 6 months ago
0382.76 MB1 0
TV/SD-x264 Adam Ruins Everything S02E21 The Copernican Ruin-aissance HDTV x264-W4F New!
1 year and 5 months ago
0120.49 MB0 0