Dawning Of The Dead 2017 720p WEB-DL x264 AAC-eSc - Torrenting.com

Dawning Of The Dead 2017 720p WEB-DL x264 AAC-eSc

Category: Movies/HD| Size: 914.67 MB| Added: 2018-04-17 01:53:36

Download
SubscribeBookmark Report

1 0

Apocalypse (2017)

Ratings: 3.2 / 10
Votes: 189 People
While a virus that causes the dead to reanimate brings the world to its knees, the scientist responsible entrusts his cataclysmic findings to Katya Nevin, a...
Actors: Leo Gregory, Sean Cronin, Honey Holmes, Pixie Le Knot, Ian Saynor, Colin Murtagh, Rene Costa, Andrew McHale, Jessica Savano, Karrie Martin, Steve Aaron-Sipple, Rafael I. Molina, Angel Garet, Paul Lavers, Russell MacLeod




Dawning.Of.The.Dead.2017.720p.WEB-DL.x264.AAC-eSc

Plot

While a virus that causes the dead to reanimate brings the world to its knees, the scientist responsible entrusts his cataclysmic findings to Katya Nevin, a troubled ex-war correspondent turned anchor-woman at W.W News. While she and the rest of her crew witness the collapse of society via video feeds from around the globe, a deadly special agent climbs the building floor by floor, his only goal to ensure her silence. Armed only with information and an indomitable will to live, Katya must overcome her crippling anxiety and learn to lead in order to make it out of the studio and into a terrifying new world where only the dead survive.

http://www.imdb.com/title/tt3332282/

Cast

Pixie Le Knot ... Zombie Contortionist
Leo Gregory ... Agent Proteus
Honey Holmes ... Natalie
Sean Cronin ... Kidnapper













Infomation


General
Format : MPEG-4
Format profile : Base Media / Version 2
Codec ID : mp42 (isom/iso2/avc1/mp41)
File size : 915 MiB
Duration : 1 h 43 min
Overall bit rate mode : Variable
Overall bit rate : 1 232 kb/s
Encoded date : UTC 2018-04-16 01:31:55
Tagged date : UTC 2018-04-16 02:08:37

Video
ID : 1
Format : AVC
Format/Info : Advanced Video Codec
Format profile : High@L4.1
Format settings : CABAC / 4 Ref Frames
Format settings, CABAC : Yes
Format settings, RefFrames : 4 frames
Codec ID : avc1
Codec ID/Info : Advanced Video Coding
Duration : 1 h 43 min
Bit rate : 1 100 kb/s
Width : 1 280 pixels
Height : 528 pixels
Display aspect ratio : 2.40:1
Frame rate mode : Variable
Frame rate : 23.976 FPS
Minimum frame rate : 11.989 FPS
Maximum frame rate : 23.981 FPS
Color space : YUV
Chroma subsampling : 4:2:0
Bit depth : 8 bits
Scan type : Progressive
Bits/(Pixel*Frame) : 0.068
Stream size : 816 MiB (89%)
Writing library : x264 core 142 r2479 dd79a61
Encoding settings : cabac=1 / ref=3 / deblock=1:-1:-1 / analyse=0x3:0x113 / me=hex / subme=7 / psy=1 / psy_rd=1.00:0.15 / mixed_ref=1 / me_range=16 / chroma_me=1 / trellis=1 / 8x8dct=1 / cqm=0 / deadzone=21,11 / fast_pskip=1 / chroma_qp_offset=-3 / threads=12 / lookahead_threads=2 / sliced_threads=0 / nr=0 / decimate=1 / interlaced=0 / bluray_compat=0 / constrained_intra=0 / bframes=3 / b_pyramid=2 / b_adapt=1 / b_bias=0 / direct=1 / weightb=1 / open_gop=0 / weightp=2 / keyint=240 / keyint_min=24 / scenecut=40 / intra_refresh=0 / rc_lookahead=40 / rc=2pass / mbtree=1 / bitrate=1100 / ratetol=1.0 / qcomp=0.60 / qpmin=0 / qpmax=69 / qpstep=4 / cplxblur=20.0 / qblur=0.5 / vbv_maxrate=62500 / vbv_bufsize=78125 / nal_hrd=none / filler=0 / ip_ratio=1.40 / aq=1:1.00
Language : English
Encoded date : UTC 2018-04-16 01:31:55
Tagged date : UTC 2018-04-16 01:31:55
Color range : Limited
Color primaries : BT.709
Transfer characteristics : BT.709
Matrix coefficients : BT.709
Menus : 4

Audio
ID : 2
Format : AAC
Format/Info : Advanced Audio Codec
Format profile : LC
Codec ID : mp4a-40-2
Duration : 1 h 43 min
Bit rate mode : Variable
Bit rate : 126 kb/s
Channel(s) : 2 channels
Channel positions : Front: L R
Sampling rate : 48.0 kHz
Frame rate : 46.875 FPS (1024 SPF)
Compression mode : Lossy
Stream size : 93.6 MiB (10%)
Title : Stereo / Stereo
Language : English
Default : Yes
Alternate group : 1
Encoded date : UTC 2018-04-16 01:31:55
Tagged date : UTC 2018-04-16 01:31:55

Menu
ID : 4
Codec ID : text
Duration : 1 h 43 min
Encoded date : UTC 2018-04-16 02:08:37
Tagged date : UTC 2018-04-16 02:08:37
Bit rate mode : CBR
Menu For : 1
00:00:00.000 : 1
00:10:36.470 : 2
00:21:06.517 : 3
00:33:47.945 : 4
00:48:00.589 : 5
01:01:17.678 : 6
01:10:54.713 : 7
01:22:02.422 : 8
01:37:32.019 : 9



[center][/center]
Related Torrents
Type Name Size
Movies Dawning Of The Dead 2017 HDRip XviD AC3-EVO New!
1 year and 4 months ago
01.41 GB1 0

<< 1 - 1 >>

NakedFaerie

(Power User)

seeders??? :t287:

<< 1 - 1 >>