Autopsy The Last Hours Of S07E10 James Brown 720p HDTV x264-eSc - Torrenting.com

Autopsy The Last Hours Of S07E10 James Brown 720p HDTV x264-eSc

Category: TV/x264 HD| Size: 1.08 GB| Added: 2018-04-17 01:49:15

Download
SubscribeBookmark Report

1 0

Autopsy: The Last Hours of (2014)

Documentary, Biography
Ratings: 7.8 / 10
Votes: 395 People
Autopsy: The Last Hours of is a TV series starring Michael Hunter, Richard Shepherd, and Iain Glen. Dr. Richard Shepherd analyses the official autopsy reports of various celebrities to determine their cause of death.
Actors: Michael Hunter




Autopsy.The.Last.Hours.Of.S07E10.James.Brown.720p.HDTV.x264-eSc

Plot

Celebrity fact and fiction are forever separated as Autopsy: The Last Hours Of... reveals the truth behind the controversial deaths of some of the most famous celebrities. The sudden and tragic passing of these global mega-stars sent the world into a frenzy fueled by hearsay and rumor. Now crucial medical evidence gained from the actual autopsies explains what killed the stars and reveals how they died, finally putting an end to the speculation.

http://www.tvmaze.com/shows/4959/autopsy-the-last-hours-of

Cast

Dr. Richard Shepherd ... Forensic Pathologist
Anjula Mutanda ... Psychologist
Eric Meyers ... Narrator
Iain Glen ... Narrator





Infomation


General
Format : Matroska
Format version : Version 4 / Version 2
File size : 1.08 GiB
Duration : 44 min 21 s
Overall bit rate : 3 470 kb/s
Encoded date : UTC 2018-04-16 04:09:26
Writing application : mkvmerge v22.0.0 ('At The End Of The World') 64-bit
Writing library : libebml v1.3.5 + libmatroska v1.4.8

Video
ID : 1
Format : AVC
Format/Info : Advanced Video Codec
Format profile : High@L3.1
Format settings : CABAC / 4 Ref Frames
Format settings, CABAC : Yes
Format settings, RefFrames : 4 frames
Codec ID : V_MPEG4/ISO/AVC
Duration : 44 min 21 s
Bit rate : 3 084 kb/s
Width : 1 280 pixels
Height : 718 pixels
Display aspect ratio : 16:9
Frame rate mode : Constant
Frame rate : 29.970 (30000/1001) FPS
Color space : YUV
Chroma subsampling : 4:2:0
Bit depth : 8 bits
Scan type : Progressive
Bits/(Pixel*Frame) : 0.112
Stream size : 978 MiB (89%)
Writing library : x264 core 142 r2479 dd79a61
Encoding settings4:36 PM 4/16/2018 : cabac=1 / ref=3 / deblock=1:0:0 / analyse=0x3:0x113 / me=hex / subme=7 / psy=1 / psy_rd=1.00:0.00 / mixed_ref=1 / me_range=16 / chroma_me=1 / trellis=1 / 8x8dct=1 / cqm=0 / deadzone=21,11 / fast_pskip=1 / chroma_qp_offset=-2 / threads=12 / lookahead_threads=2 / sliced_threads=0 / nr=0 / decimate=1 / interlaced=0 / bluray_compat=0 / constrained_intra=0 / bframes=3 / b_pyramid=2 / b_adapt=1 / b_bias=0 / direct=1 / weightb=1 / open_gop=0 / weightp=2 / keyint=300 / keyint_min=30 / scenecut=40 / intra_refresh=0 / rc_lookahead=40 / rc=crf / mbtree=1 / crf=18.0 / qcomp=0.60 / qpmin=0 / qpmax=69 / qpstep=4 / vbv_maxrate=17500 / vbv_bufsize=17500 / crf_max=0.0 / nal_hrd=none / filler=0 / ip_ratio=1.40 / aq=1:1.00
Default : Yes
Forced : No
Color range : Limited
Color primaries : BT.709
Transfer characteristics : BT.709
Matrix coefficients : BT.709

Audio
ID : 2
Format : AC-3
Format/Info : Audio Coding 3
Codec ID : A_AC3
Duration : 44 min 21 s
Bit rate mode : Constant
Bit rate : 384 kb/s
Channel(s) : 2 channels
Channel positions : Front: L R
Sampling rate : 48.0 kHz
Frame rate : 31.250 FPS (1536 SPF)
Bit depth : 16 bits
Compression mode : Lossy
Delay relative to video : -5 ms
Stream size : 122 MiB (11%)
Title : Stereo
Language : English
Service kind : Complete Main
Default : Yes
Forced : No4:36 PM 4/16/2018



[center][/center]
Related Torrents
Type Name Size
TV/SD-x264 Autopsy The Last Hours Of S07E10 James Brown HDTV x264-eSc New!
1 year and 4 months ago
0389.66 MB1 0