American Dynasties The Kennedys S01E06 HDTV x264-eSc - Torrenting.com

American Dynasties The Kennedys S01E06 HDTV x264-eSc

Category: TV/SD-x264| Size: 407.37 MB| Added: 2018-04-17 01:48:23

Download
SubscribeBookmark Report

1 0

American Dynasties: The Kennedys (2018)

Ratings: 7.8 / 10
Votes: 240 People
American Dynasties: The Kennedys is a TV series starring Martin Sheen, Barbara Perry, and Van Jones. Explore the Kennedy familys rise to power and how personal relationships within the Kennedy dynasty shaped national and global...
Actors: Martin Sheen, Barbara Perry, Van Jones, Evan Thomas, Larry Tye, Kathleen Kennedy Townsend, J. Randy Taraborrelli, Richard Mahoney, Robert F. Kennedy Jr., Tim Naftali, Alexis Coe, David Nasaw, Laurence Leamer, Kate Andersen Brower, Leah Wright Rigueur, Patrick J. Kennedy, David Axelrod, Stephen Kennedy Smith, Pat Buchanan, Sally Bedell Smith, Kick Kennedy, Thomas Hughes, Mel Cottone, Peter Edelman, Sarah Gallick, Ronald Goldfarb, Peter Kornbluh, Nancy Pelosi, Adam Schiff, Adam Walinsky, Elizabeth Warren




American.Dynasties.The.Kennedys.S01E06.HDTV.x264-eSc

Plot

American Dynasties: The Kennedys takes viewers to the heart of America's First Family,' revealing how personal relationships within the dynasty helped shaped national and global events from the Cold War to the Wall Street crash. The docuseries spans the life of patriarch Joseph "Joe" Kennedy and his children uncovering how this one family so significantly shaped twentieth century America.

http://www.tvmaze.com/shows/28341/american-dynasties-the-kennedys

Cast

Martin Sheen ... Narrator





Infomation


General
Format : Matroska
Format version : Version 4 / Version 2
File size : 407 MiB
Duration : 42 min 0 s
Overall bit rate : 1 356 kb/s
Encoded date : UTC 2018-04-16 05:07:51
Writing application : mkvmerge v22.0.0 ('At The End Of The World') 64-bit
Writing library : libebml v1.3.5 + libmatroska v1.4.8

Video
ID : 1
Format : AVC
Format/Info : Advanced Video Codec
Format profile : High@L3.1
Format settings : CABAC / 4 Ref Frames
Format settings, CABAC : Yes
Format settings, RefFrames : 4 frames
Codec ID : V_MPEG4/ISO/AVC
Duration : 42 min 0 s
Bit rate : 1 241 kb/s
Width : 720 pixels
Height : 404 pixels
Display aspect ratio : 16:9
Original display aspect ratio : 16:9
Frame rate mode : Constant
Frame rate : 29.970 (30000/1001) FPS
Color space : YUV
Chroma subsampling : 4:2:0
Bit depth : 8 bits
Scan type : Progressive
Bits/(Pixel*Frame) : 0.142
Stream size : 373 MiB (92%)
Writing library : x264 core 142 r2479 dd79a61
Encoding settings : cabac=1 / ref=3 / deblock=1:0:0 / analyse=0x3:0x113 / me=hex / subme=7 / psy=1 / psy_rd=1.00:0.00 / mixed_ref=1 / me_range=16 / chroma_me=1 / trellis=1 / 8x8dct=1 / cqm=0 / deadzone=21,11 / fast_pskip=1 / chroma_qp_offset=-2 / threads=12 / lookahead_threads=2 / sliced_threads=0 / nr=0 / decimate=1 / interlaced=0 / bluray_compat=0 / constrained_intra=0 / bframes=3 / b_pyramid=2 / b_adapt=1 / b_bias=0 / direct=1 / weightb=1 / open_gop=0 / weightp=2 / keyint=300 / keyint_min=30 / scenecut=40 / intra_refresh=0 / rc_lookahead=40 / rc=crf / mbtree=1 / crf=18.0 / qcomp=0.60 / qpmin=0 / qpmax=69 / qpstep=4 / vbv_maxrate=17500 / vbv_bufsize=17500 / crf_max=0.0 / nal_hrd=none / filler=0 / ip_ratio=1.40 / aq=1:1.00
Default : Yes
Forced : No
Color range : Limited
Color primaries : BT.709
Transfer characteristics : BT.709
Matrix coefficients : BT.709

Audio
ID : 2
Format : AAC
Format/Info : Advanced Audio Codec
Format profile : LC
Codec ID : A_AAC-2
Duration : 42 min 0 s
Bit rate : 112 kb/s
Channel(s) : 2 channels
Channel positions : Front: L R
Sampling rate : 48.0 kHz
Frame rate : 46.875 FPS (1024 SPF)
Compression mode : Lossy
Delay relative to video : -67 ms
Stream size : 33.7 MiB (8%)
Language : English
Default : Yes
Forced : No



[center][/center]
Related Torrents
Type Name Size
TV/x264 HD American Dynasties The Kennedys S01E06 720p HDTV x264-eSc New!
1 year and 4 months ago
01.11 GB1 0

<< 1 - 3 >>

dp51dp51

(User)

thanks!

bemebe

(Power User)

thank you

hellygog

(VIP)

Thanks for sharing:t21::t53::t18::t62:

<< 1 - 3 >>